Blu-Ray 1080p (French) | Lara Croft Tomb Raider The Cradle of Life (2003) 720p BluRay DTS x264-RightSiZE | Modern Classics

cbdoilico.com - Darmowe polskie torrenty

Witaj drogi Towarzyszu!, jeżeli widzisz ten dymek to znaczy że nie jesteś zarejestrowany/zalogowany. Kliknij by się zarejestrować . Rejestracja zajmie mniej niż 30 sekund, a dzięki niej zyskasz możliwość pobierania, komentowania oraz dodawania torrentów !
User:  Hasło:     






Kategorie


Najczęściej pobierane w Sierpniu


Detale Torrenta


Egzorcysta S02E13 - Pentakilo [1080p.WEB-DL.H.264.AC3] [PL]

S: 35L: 1P: 270
Dodał: Lukarusi Tracker:
Kondycja:Dodane:2018-08-09 10:26:35
Kategoria:Seriale  »  AnimowaneRozmiar:593.77 MB
Język:Polskie Seriale  Polskie SerialePobrali:POBRALI PLIK
Obserwuj:OBSERWUJ TORRENTAStaty:UAKTUALNIJ TRACKER
Download: Pobierz TorrentRaport:RAPORTUJ TORRENTA


produkcja: PL
gatunek: Komedia, Animacja
twórca: Bartosz Walaszek
czas trwania: ok. 10 min.



Egzorcysta to człowiek do którego dzwoni się w ostateczności. Na co dzień zajmuje się pracami budowlano-remontowymi. Ale w ramach powołania – walczy z demonami, wampirami, duchami i tym podobnym cholerstwem.



Format : Matroska
Format version : Version 4 / Version 2
File size : 594 MiB
Duration : 10 min 1 s
Overall bit rate mode : Variable
Overall bit rate : 8 286 kb/s
Encoded date : UTC 2018-08-09 06:12:47

Video
ID : 1
Format : AVC
Format/INFO : Advanced Video Codec
Format profile : [email protected]
Format settings : CABAC / 4 Ref Frames
Format settings, CABAC : Yes
Format settings, ReFrames : 4 frames
Codec ID : V_MPEG4/ISO/AVC
Duration : 10 min 1 s
Bit rate mode : Variable
Bit rate : 7 899 kb/s
Maximum bit rate : 12.0 Mb/s
Width : 1 920 pixels
Height : 860 pixels
Display aspect ratio : 2.2:1
Frame rate mode : Constant
Frame rate : 29.970 (30000/1001) FPS
Color space : YUV
Chroma subsampling : 4:2:0
Bit depth : 8 bits
Scan type : Progressive
Bits/(Pixel*Frame) : 0.160
Stream size : 566 MiB (95%)
Color range : Limited
Color primaries : BT.709
Transfer characteristics : BT.709
Matrix coefficients : BT.709

Audio
ID : 2
Format : AC-3
Format/INFO : Audio Coding 3
Codec ID : A_AC3
Duration : 10 min 1 s
Bit rate mode : Constant
Bit rate : 384 kb/s
Channel(s) : 2 channels
Channel positions : Front: L R
Sampling rate : 48.0 kHz
Frame rate : 31.250 FPS (1536 SPF)
Bit depth : 16 bits
Compression mode : Lossy
Stream size : 27.5 MiB (5%)
Language : Polish
Service kind : Complete Main

====================================================

PODOBNE TORRENTY
Egzorcysta S02E01-02 [1080p.WEB-DL.H.264.AC3] [PL] Egzorcysta S02E07-08 [1080p.WEB-DL.H.264.AC3] [PL] Egzorcysta S02E10-11 [1080p.WEB-DL.H.264.AC3] [PL] Egzorcysta S02E03 - Sortownicy [1080p.WEB-DL.H.264.AC3] [PL] Egzorcysta S02E06 - Bestia [1080p.WEB-DL.H.264.AC3] [PL] Egzorcysta S01E01-03 [1080p.WEBRip.x264.AC3] [PL]
Szczegóły torrenta
TRACKER
Tracker Podstawowy: http://tracker.vanitycore.co:6969/announce

Multitrackery:

http://tracker.vanitycore.co:6969/announce
http://tracker.cbdoilico.com:8089/announce
http://agusiq-torrents.pl:6969/announce
http://tracker.torrentyorg.pl/announce
udp://tracker.publicbt.com/announce
udp://9.rarbg.com:2800/announce
udp://t1.pow7.com/announce
udp://tracker.torrentbay.to:6969/announce
udp://tracker.prq.to/announce
udp://tracker.istole.it:80/announce
udp://exodus.desync.com:6969/announce
udp://tracker.leechers-paradise.org:6969/announce
udp://9.rarbg.me:2740/announce
http://retracker.omsk.ru:2710/announce
udp://shadowshq.eddie4.nl:6969/announce
http://mgtracker.org:2710/announce
http://tracker.tfile.me/announce
udp://tracker.glotorrents.com:6969/announce
udp://eddie4.nl:6969/announce
udp://torrent.gresille.org:80/announce
udp://poloniumsurfer.tk:6969/announce
udp://tracker.pomf.se:80/announce
udp://sugoi.pomf.se:80/announce
udp://tracker.openbittorrent.com:80/announce
udp://10.rarbg.com/announce

UAKTUALNIENIE
15/08/2018 14:20:54 (Jeśeli nie widac seeda kliknij na [uaktualnij] by odswieżyć statystyki).
[Lub sprawdź programem do pobierania torrentów, ponieważ niektóre trackery nie wyświetlają statystyk]
1 file
 
KOMENTARZE


Brak komentarzy...

DODAJ KOMENTARZ

Zaloguj się aby dodawać komentarze !!!



Wstecz








WRÓĆ NA GÓRĘ