People of Earth | Kristin Cochell | How to Get Away with Murder

cbdoilico.com - Darmowe polskie torrenty

Witaj drogi Towarzyszu!, jeżeli widzisz ten dymek to znaczy że nie jesteś zarejestrowany/zalogowany. Kliknij by się zarejestrować . Rejestracja zajmie mniej niż 30 sekund, a dzięki niej zyskasz możliwość pobierania, komentowania oraz dodawania torrentów !
User:  Hasło:     






Kategorie


Najczęściej pobierane w Sierpniu


Detale Torrenta


Salvation S02E06 - Let the Chips Fall [720p.AMZN.WEB-DL.H.264.DDP5.1] [Napisy PL]

S: 23L: 0P: 142
Dodał: Lukarusi Tracker:
Kondycja:Dodane:2018-08-09 11:37:27
Kategoria:Seriale  »  Sci-Fi / FantasyRozmiar:663.19 MB
Język:Napisy PL  Napisy PLPobrali:POBRALI PLIK
Obserwuj:OBSERWUJ TORRENTAStaty:UAKTUALNIJ TRACKER
Download: Pobierz TorrentRaport:RAPORTUJ TORRENTA


produkcja: USA
gatunek: Sci-Fi, Thriller, Dramat
reżyseria: Kenneth Fink, Juan Carlos Fresnadillo, Stuart Gillard
scenariusz: Elizabeth Kruger, Craig Shapiro, Christina M. Walker
zdjęcia: Mark Willis, Dave Sheridan
muzyka: John Paesano
czas trwania: ok. 44 min.



Bohaterami serialu są absolwent MIT Liamie oraz miliarder Darius Tanz, którzy INFOrmują niską rangą pracownicę Pentagonu, że pewna planetoida jest na kursie kolizyjnym z Ziemią. Do zderzenia ma dojść za pół roku.



Ian Anthony Dale - Harris Edwards
Santiago Cabrera - Darius Tanz
Jennifer Finnigan - Grace Barrows
Dennis Boutsikaris - Dr. Malcom Croft
Charlie Rowe - Liam Cole
Aaron Poole - Lazlo Simms
Kyle Alcock - Tanz employee
Lovina Yavari - Naomi



Format : Matroska
Format version : Version 4 / Version 2
File size : 663 MiB
Duration : 43 min 47 s
Overall bit rate : 2 117 kb/s
Encoded date : UTC 2018-08-09 09:26:17

Video
ID : 1
Format : AVC
Format/INFO : Advanced Video Codec
Format profile : [email protected]
Format settings : CABAC / 5 Ref Frames
Format settings, CABAC : Yes
Format settings, ReFrames : 5 frames
Codec ID : V_MPEG4/ISO/AVC
Duration : 43 min 47 s
Bit rate : 1 475 kb/s
Width : 1 280 pixels
Height : 720 pixels
Display aspect ratio : 16:9
Frame rate mode : Constant
Frame rate : 23.976 (24000/1001) FPS
Color space : YUV
Chroma subsampling : 4:2:0
Bit depth : 8 bits
Scan type : Progressive
Bits/(Pixel*Frame) : 0.067
Stream size : 462 MiB (70%)
Color range : Limited
Color primaries : BT.709
Transfer characteristics : BT.709
Matrix coefficients : BT.709

Audio
ID : 2
Format : E-AC-3
Format/INFO : Enhanced Audio Coding 3
Codec ID : A_EAC3
Duration : 43 min 47 s
Bit rate mode : Constant
Bit rate : 640 kb/s
Channel(s) : 6 channels
Channel positions : Front: L C R, Side: L R, LFE
Sampling rate : 48.0 kHz
Frame rate : 187.500 FPS (256 SPF)
Compression mode : Lossy
Stream size : 200 MiB (30%)
Language : English
Service kind : Complete Main
Default : Yes
Forced : Yes

Text
ID : 3
Format : UTF-8
Codec ID : S_TEXT/UTF8
Codec ID/INFO : UTF-8 Plain Text
Duration : 43 min 3 s
Bit rate : 87 b/s
Count of elements : 699
Stream size : 27.4 KiB (0%)
Language : Polish
Default : Yes
Forced : Yes

====================================================

PODOBNE TORRENTY
Salvation S02E01-02 [720p.AMZN.WEB-DL.H.264.DDP5.1] [Napisy PL] Salvation S02E04 - Indivisible [720p.AMZN.WEB-DL.H.264.DDP5.1] [Napisy PL] Salvation S02E03 - Crimes and Punishment [720p.AMZN.WEB-DL.H.264.DDP5.1] [Napisy PL] Salvation S02E05 - White House Down [720p.AMZN.WEB-DL.H.264.DDP5.1] [Napisy PL] Tacy jesteśmy - This Is Us *2016* [S02E01-E12] [720p.AMZN.WEBRip.DDP5.1.x264-NTb] [Napisy PL] [Alusia] Tacy jesteśmy - This Is Us *2016-* Sezon 2 [720p.AMZN.WEBRip.DDP5.1.x264-NTb] [Napisy PL] [Alusia]
Szczegóły torrenta
TRACKER
Tracker Podstawowy: http://tracker.vanitycore.co:6969/announce

Multitrackery:

http://tracker.vanitycore.co:6969/announce
http://tracker.cbdoilico.com:8089/announce
http://agusiq-torrents.pl:6969/announce
http://tracker.torrentyorg.pl/announce
udp://tracker.publicbt.com/announce
udp://9.rarbg.com:2800/announce
udp://t1.pow7.com/announce
udp://tracker.torrentbay.to:6969/announce
udp://tracker.prq.to/announce
udp://tracker.istole.it:80/announce
udp://exodus.desync.com:6969/announce
udp://tracker.leechers-paradise.org:6969/announce
udp://9.rarbg.me:2740/announce
http://retracker.omsk.ru:2710/announce
udp://shadowshq.eddie4.nl:6969/announce
http://mgtracker.org:2710/announce
http://tracker.tfile.me/announce
udp://tracker.glotorrents.com:6969/announce
udp://eddie4.nl:6969/announce
udp://torrent.gresille.org:80/announce
udp://poloniumsurfer.tk:6969/announce
udp://tracker.pomf.se:80/announce
udp://sugoi.pomf.se:80/announce
udp://tracker.openbittorrent.com:80/announce
udp://10.rarbg.com/announce

UAKTUALNIENIE
11/08/2018 17:06:51 (Jeśeli nie widac seeda kliknij na [uaktualnij] by odswieżyć statystyki).
[Lub sprawdź programem do pobierania torrentów, ponieważ niektóre trackery nie wyświetlają statystyk]
2 pliki
 
KOMENTARZE


Brak komentarzy...

DODAJ KOMENTARZ

Zaloguj się aby dodawać komentarze !!!



Wstecz








WRÓĆ NA GÓRĘ